Thugs of Hindostan (2018) Hindi 720p pDVDRip x264 1.1GB -1337xHD

  • Category Movies
  • Type Bollywood
  • Language Hindi
  • Total size 1.1 GB
  • Uploaded By 1337xHD
  • Downloads 468
  • Last checked 58 minutes ago
  • Date uploaded 4 hours ago
  • Seeders 13
  • Leechers 21

ठग्स ऑफ हिंदोस्तान...

AdventureActionHistory

The film's plot is based on Philip Meadows Taylor's 1839 novel Confessions of a Thug,about a thug (also known as a thuggee) called Ameer Ali, whose gang of thugs posed a serious challenge to the British Empire in India during the early 19th century. The film tells a fictional story set between 1790 and 1805.

Infohash : 571C27F2F3AB6845E6ABA2FF0C617505D72135AC

http://hdfilmboss.mobi/
http://1337xhd.com/



Official Website http://hdfilmboss.mobi/
Official Website http://1337xhd.com/



General
Format version : Version 4
File size : 1.07 GiB
Duration : 2 h 34 min
Overall bit rate : 990 kb/s
Movie name : HDFilmBoss.Mobi
Encoded date : UTC 2018-11-08 12:27:34
Writing application : mkvmerge v28.2.0 ('The Awakening') 64-bit
Writing library : libebml v1.3.6 + libmatroska v1.4.9

Video
ID : 1
Format : AVC
Format/Info : Advanced Video Codec
Format profile : [email protected]
Format settings : CABAC / 4 Ref Frames
Format settings, CABAC : Yes
Format settings, RefFrames : 4 frames
Codec ID : V_MPEG4/ISO/AVC
Duration : 2 h 34 min
Bit rate : 933 kb/s
Width : 1 280 pixels
Height : 544 pixels
Display aspect ratio : 2.35:1
Frame rate mode : Constant
Frame rate : 25.000 FPS
Color space : YUV
Chroma subsampling : 4:2:0
Bit depth : 8 bits
Scan type : Progressive
Bits/(Pixel*Frame) : 0.054
Stream size : 1.01 GiB (94%)
Title : 1337xHD.Com
Writing library : x264 core 148 r2643 5c65704
Language : Hindi
Default : Yes
Forced : No

Audio
ID : 2
Format : AAC LC
Format/Info : Advanced Audio Codec Low Complexity
Codec ID : A_AAC-2
Duration : 2 h 34 min
Bit rate : 56.0 kb/s
Channel(s) : 1 channel
Channel layout : C
Sampling rate : 22.05 kHz
Frame rate : 21.533 FPS (1024 SPF)
Compression mode : Lossy
Delay relative to video : -93 ms
Stream size : 62.1 MiB (6%)
Title : 1337xHD.Com
Language : Hindi
Default : Yes
Forced : No











Files:

  • 1337xHD.Com-Thugs of Hindostan (2018) Hindi 720p pDVDRip x264 1.1GB.mkv (1.1 GB)

There are currently no comments. Feel free to leave one :)

SitemapSeason 1 Episode 12 #TeamLucifer | Android Games | Lernsoftware & Sprachen Barbie und der geheimnisvolle Pegasus Barbie und der geheimnisvolle Pegasus (2005) Animation, Familie, LiebesfilmBei einem nächtlichen Eislaufausflug wird die hübscheste Prinzessin im ganzen Land von einem bösartigen Lord, der auf einem Drachen einherschwebt, überrascht. Als sie seinen Heiratsantrag ablehnt, verwandelt er ihre Eltern in Stein. Gemeinsam mit ihrer Schwester, die der Lord vor Jahren in ein fliegendes Pferd verwandelt hatte, beschließt sie ihre Eltern allen Gefahren zum Trotz zu retten. | R-Play Remote Play for the PS4 android Advice | Thám Tử Lừng Danh Conan chap 262