Mr & Mrs 420 Returns 2018 x264 720p SD Punjabi GOPISAHI

  • Category Movies
  • Type Bollywood
  • Language Punjabi
  • Total size 664.1 MB
  • Uploaded By PENDUDESI
  • Downloads 1007
  • Last checked 40 minutes ago
  • Date uploaded 7 hours ago
  • Seeders 96
  • Leechers 164

Infohash : 459A6924D6A23FD67C4EC8BCBDFEC159DE746A78

http://www.gopisahi.pw/

Format                         : Matroska
Format version                 : Version 4 / Version 2
File size                      : 664 MiB
Duration                       : 2 h 13 min
Overall bit rate               : 697 kb/s
Movie name                     : Mr & Mrs 420 Returns 2018 GOPISAHI

Video
Format                         : AVC
Codec ID                       : V_MPEG4/ISO/AVC
Duration                       : 2 h 13 min
Bit rate                       : 599 kb/s
Width                          : 1 280 pixels
Height                         : 534 pixels
Display aspect ratio           : 2.40:1
Frame rate mode                : Constant
Frame rate                     : 25.000 FPS
Color space                    : YUV
Chroma subsampling             : 4:2:0
Bit depth                      : 8 bits
Scan type                      : Progressive
Bits/(Pixel*Frame)             : 0.035
Stream size                    : 570 MiB (86%)
Title                          : GOPISAHI
Writing library                : x264 core 155 r2901 7d0ff22

Audio
Format                         : AAC
Format/Info                    : Advanced Audio Codec
Duration                       : 2 h 13 min
Bit rate                       : 96.0 kb/s
Channel(s)                     : 2 channels
Channel positions              : Front: L R
Sampling rate                  : 48.0 kHz
Frame rate                     : 46.875 FPS (1024 SPF)
Compression mode               : Lossy
Delay relative to video        : -21 ms
Stream size                    : 91.7 MiB (14%)
Title                          : GOPISAHI
Language                       : Panjabi



Files:

  • Mr & Mrs 420 Returns 2018 x264 720p SD Punjabi GOPISAHI.mkv (664.1 MB)

There are currently no comments. Feel free to leave one :)

Code:

  • udp://tracker.coppersurfer.tk:6969/announce
  • udp://tracker.pirateparty.gr:6969/announce
  • udp://shadowshq.yi.org:6969/announce
  • udp://eddie4.nl:6969/announce
  • udp://tracker.leechers-paradise.org:6969/announce
  • udp://tracker.opentrackr.org:1337/announce
  • udp://p4p.arenabg.ch:1337/announce
  • udp://p4p.arenabg.com:1337/announce
  • udp://9.rarbg.me:2720/announce
  • udp://9.rarbg.to:2780/announce
  • udp://tracker.coppersurfer.tk:80/announce
  • udp://tracker.vanitycore.co:6969/announce
  • udp://public.popcorn-tracker.org:6969/announce
  • udp://tracker.opentrackr.org:1337/announce
  • udp://tracker.zer0day.to:1337/announce
  • udp://thetracker.org:80/announce
  • udp://explodie.org:6969/announce
  • udp://tracker.internetwarriors.net:1337/announce
SitemapStrictly Come Dancing - Season 16 | Arts Martiaux | Die Bestimmung - Divergent Porovnat ceny | Accident Man BluRay MicroHD | Wu Kong (2017) Chinese Movie 720p BluRay 850MB x264